Bering Sea Gold S13E03 The Blacklist S08E17 ufc The Woman in the Window 2021 Young Sheldon S04E18 wrath of man Stowaway 2021 0 hindi Hindi 2021 Tom Clancys Without Remorse 2021 Voyagers 2021 Spiral 2021 The Bad Batch S01E03 proper The blacklist Army of the Dead 2021 Things Heard and Seen 2021 Nobody 2021 army of the dead Raya and the Last Dragon 2021 Those Who Wish Me Dead 2021 love death and robots ufc 262 Domina s01e01 malayalam The Marksman 2021 Great White 2021 Wrath of Man 2021 The Mitchells vs. The Machines 2021 Manifest S03E09 tamil mumbai saga indycar those who wish me dead evo Oxygen 2021 RADHE 2021 Queen of the South S05E06 Clarice S01E09 rq.mp4 operation java The Handmaids Tale S04E05 The last hour The Virtuoso 2021 Godzilla vs. Kong 2021 Blue Bloods s11e16 WWE  2160p ethd Blue Bloods s11e15 spiral mortal kombat 2021 Radhe Mare of Easttown s01e04 etmovies Law and Order Organized Crime S01E05 karnan Spiral From the Book of Saw 2021 The Unholy 2021 mortal kombat Zack Snyders Justice League 2021 Jupiters Legacy s01e01 yts ita Law and Order SVU S22E13 ettv etrg xxx motogp The Mosquito Coast s01e04 chicago p.d. s08e14 ddr 
Warning! Use a VPN When Downloading Torrents!
Your IP Address is 3.238.235.155,. Location
Your Internet Provider can see when you download torrents! Hide your IP Address with a VPN
ETTV warns: You should use VPN to hide your torrenting. HIDE ME NOW
ETTV Recommended TV Shows
UFC 262 | Oliveira vs. Chandler | Preliminary Fights | WEB-DL-BB [A1Rip] torrent
UFC 262 | Oliveira vs. Chandler | Main Event Fights | 720p HDTV-VERUM [A1Rip] torrent
Final.Space.S03E09.720p.WEBRip.x264-BAE torrent
Godfather.of.Harlem.S02E05.720p.WEB.H264-GLHF torrent
Paw.Patrol.S07E44E45.720p.NICK.WEBRip.AAC2.0.H264-LAZY torrent
Saturday.Night.Live.S46E19.Keegan.Michael.Key.and.Olivia.Rodrigo.720p.HDTV.x264-CRiMSON torrent
MasterChef.Australia.S13E20.720p.HDTV.x264-ORENJI torrent
City.on.a.Hill.S02E08.720p.WEB.H264-GGWP torrent
iMPACT Wrestling Under Siege 2021 720p WEBRip h264-TJ [TJET] torrent
WWE WrestleMania Backlash 2021 Kickoff WEB h264-HEEL [TJET] torrent

ETTV Recommended SD
The.Djinn.2021.HDRip.XviD.AC3-EVO torrent
TimeCrafters.The.Treasure.of.Pirates.Cove.2021.HDRip.XviD.AC3-EVO torrent
Those.Who.Wish.Me.Dead.2021.HDRip.XviD.AC3-EVO torrent
The.Woman.in.the.Window.2021.HDRip.XviD.AC3-EVO torrent

ETTV Recommended HD
The House With A Clock In Its Walls - Fantasy 2018 Eng Rus Multi-Subs 1080p [H264-mp4] torrent
88 Minutes (2007) [Al Pacino] 1080p H264 DolbyD 5.1 ⛦ ©️nickarad torrent
Godzilla.vs.Kong.2021.WEBRip.1080p.HEVC.HDR.DDP.DD5.1.gerald99 torrent
Raya.and.the.Last.Dragon.2021.BRRip.1080p.HEVC.HDR.Eng.DD5.1.gerald99 torrent

ETTV Recommended UHD
300.2006.2160p.Upscaled.Open.Matte.Eng.DTS.DD5.1.gerald99 torrent
Hotel.Transylvania.2 PACK.WEBRips.2160p.UHD.HDR.DTS-HD.MA.DD5.1.gerald99 torrent
Equilibrium.2002.2160p.Upscaled.Open.Matte.Eng.DD5.1.gerald99 torrent
All.The.Money.In.The.World.2017.WEBRip.2160p.UHD.HDR.DTS-HD.MA.DD5.1.gerald99 torrent
Raya.and.the.Last.Dragon.2021.BDRip.2160p.UHD.HDR.Eng.TrueHD.DD5.1.gerald99 torrent
Black.and.Blue.2019.WEBRip.2160p.UHD.HDR.Eng.DTS-HD.MA.DD5.1.gerald99 torrent

ETTV Recommended Cam
Long Story Short (2021) English HDCAM x264 AAC By Full4Movies torrent
Ascendant (2021) 720p HDCAM English New Movie x264 AAC By Full4Movies torrent
Those Who Wish Me Dead.2021.1080p.HDCAM.X264-Frango torrent
Wrath of Man (2021) 720p HDCAM English x264 AAC By Full4Movies torrent

ETTV Recommended Foreign
Iris (1987) UNCUT 720p DVDRip x264 [Dual Audio] [Hindi DD 2.0 - Dutch 2.0] Exclusive By -=!Dr.STAR!=- torrent
Asuraguru (2021) HDRip 720p Malayalam (Org) + Tamil (DD5.1) 1.1GB  ESub[MB] torrent
Stand By Me Doraemon 1 And 2 2014-2020 720p.BluRay x264 Mkvking torrent
Mortal.Kombat.2021.SPANiSH.2160p.HMAX.WEB-DL.DDP5.1.Atmos.HDR.HEVC-dem3nt3 torrent
Without.Remorse.Senza.Rimorso.Di.Tom.Clancy.2021.iTALiAN.MULTi.UHD.HDR.WEB.x265-MeM.mkv torrent
The Legend of Hei 2019 CHINESE 720p BluRay HEVC x265-RMTeam  torrent

ETTV Recommended Music
OutKast - Ms. Jackson [Maxi CD] (2001) Flac torrent
P!nk - Missundaztood (2001) Flac torrent
VA - New Music Releases Week 19 of 2021 (Mp3 320kbps Songs) [PMEDIA] ⭐️ torrent
[pop, rock] (2021) Nancy Wilson - You and Me [FLAC] [DarkAngie] torrent
Willie Nelson - Texas Willie (2021) Mp3 320kbps [PMEDIA] ⭐️ torrent
Harry-Nilsson-All-Time-Greatest-Hits Mp-3 1989 torrent


Download Torrent "Final Space - S03.E07 - The Chamber of Doubt 1080p AMZN WebRip x265 DDP 5.1..."

IMDB Details
Description:

An astronaut named Gary and his planet-destroying sidekick called Mooncake embark on serialized journeys through space in order to unlock the mystery of where the universe actually ends and if it actually does exist.

Genre:

Animation, Action, Adventure

Download Torrent (Magnet)
Download Torrent (File)

Seeds: 232
Leechers: 34

Uploaded by:
D0ct0rLew


Category:
TV > HEVC/x265 (Super High Quality, Small size, high CPU usage)


Details
Title:Final Space - S03.E07 - The Chamber of Doubt 1080p AMZN WebRip x265 DDP 5.1...
Description:



Screenshot's




Media Information
General
Unique ID                   : 80059728626343585800989930286419091149 (0x3C3AF15FEF500D5CDC7A64B49D891ECD)
Complete name               : Final Space - S03.E07 - The Chamber of Doubt 1080p AMZN WebRip x265 DDP 5.1 Kira [SEV].mkv
Format                      : Matroska
Format version              : Version 4
File size                   : 459 MiB
Duration                    : 21 min 6 s
Overall bit rate            : 3 042 kb/s
Movie name                  : Final Space : S03.E07 : The Chamber of Doubt
Encoded date                : UTC 2021-05-04 08:52:04
Writing application         : mkvmerge v56.1.0 ('My Friend') 64-bit
Writing library             : libebml v1.4.2 + libmatroska v1.6.4

Video
ID                          : 1
Format                      : HEVC
Format/Info                 : High Efficiency Video Coding
Format profile              : Main [email protected]@Main
Codec ID                    : V_MPEGH/ISO/HEVC
Duration                    : 21 min 6 s
Bit rate                    : 2 399 kb/s
Width                       : 1 920 pixels
Height                      : 1 080 pixels
Display aspect ratio        : 16:9
Frame rate mode             : Constant
Frame rate                  : 23.976 (24000/1001) FPS
Color space                 : YUV
Chroma subsampling          : 4:2:0
Bit depth                   : 10 bits
Bits/(Pixel*Frame)          : 0.048
Stream size                 : 362 MiB (79%)
Title                       : Final Space : S03.E07 : The Chamber of Doubt
Writing library             : x265 3.5+9-bf91444e0:[Windows][MSVC 1928][64 bit] 10bit
Encoding settings           : cpuid=1111039 / frame-threads=2 / numa-pools=4 / wpp / no-pmode / no-pme / no-psnr / no-ssim / log-level=2 / input-csp=1 / input-res=1920x1080 / interlace=0 / total-frames=30360 / level-idc=0 / high-tier=1 / uhd-bd=0 / ref=4 / no-allow-non-conformance / no-repeat-headers / annexb / no-aud / no-eob / no-eos / no-hrd / info / hash=0 / no-temporal-layers / open-gop / min-keyint=23 / keyint=250 / gop-lookahead=0 / bframes=8 / b-adapt=0 / b-pyramid / bframe-bias=0 / rc-lookahead=100 / lookahead-slices=4 / scenecut=40 / hist-scenecut=0 / radl=0 / no-splice / no-intra-refresh / ctu=64 / min-cu-size=8 / no-rect / no-amp / max-tu-size=32 / tu-inter-depth=1 / tu-intra-depth=1 / limit-tu=0 / rdoq-level=2 / dynamic-rd=0.00 / no-ssim-rd / signhide / no-tskip / nr-intra=0 / nr-inter=0 / no-constrained-intra / no-strong-intra-smoothing / max-merge=3 / limit-refs=3 / limit-modes / me=3 / subme=7 / merange=92 / temporal-mvp / no-frame-dup / no-hme / weightp / no-weightb / no-analyze-src-pics / deblock=0:0 / sao / no-sao-non-deblock / rd=4 / selective-sao=4 / no-early-skip / rskip / no-fast-intra / no-tskip-fast / no-cu-lossless / no-b-intra / no-splitrd-skip / rdpenalty=0 / psy-rd=1.30 / psy-rdoq=1.00 / no-rd-refine / no-lossless / cbqpoffs=0 / crqpoffs=0 / rc=abr / bitrate=2400 / qcomp=0.60 / qpstep=4 / stats-write=0 / stats-read=2 / cplxblur=20.0 / qblur=0.5 / ipratio=1.40 / pbratio=1.30 / aq-mode=3 / aq-strength=1.10 / cutree / zone-count=0 / no-strict-cbr / qg-size=32 / no-rc-grain / qpmax=69 / qpmin=0 / no-const-vbv / sar=0 / overscan=0 / videoformat=5 / range=0 / colorprim=2 / transfer=2 / colormatrix=2 / chromaloc=0 / display-window=0 / cll=0,0 / min-luma=0 / max-luma=1023 / log2-max-poc-lsb=8 / vui-timing-info / vui-hrd-info / slices=1 / no-opt-qp-pps / no-opt-ref-list-length-pps / no-multi-pass-opt-rps / scenecut-bias=0.05 / hist-threshold=0.03 / no-opt-cu-delta-qp / no-aq-motion / no-hdr10 / no-hdr10-opt / no-dhdr10-opt / no-idr-recovery-sei / analysis-reuse-level=0 / analysis-save-reuse-level=0 / analysis-load-reuse-level=0 / scale-factor=0 / refine-intra=0 / refine-inter=0 / refine-mv=1 / refine-ctu-distortion=0 / no-limit-sao / ctu-info=0 / no-lowpass-dct / refine-analysis-type=0 / copy-pic=1 / max-ausize-factor=1.0 / no-dynamic-refine / no-single-sei / no-hevc-aq / no-svt / no-field / qp-adaptation-range=1.00 / scenecut-aware-qp=0conformance-window-offsets / right=0 / bottom=0 / decoder-max-rate=0 / no-vbv-live-multi-pass
Language                    : English
Default                     : Yes
Forced                      : No

Audio
ID                          : 2
Format                      : E-AC-3
Format/Info                 : Enhanced AC-3
Commercial name             : Dolby Digital Plus
Codec ID                    : A_EAC3
Duration                    : 21 min 6 s
Bit rate mode               : Constant
Bit rate                    : 640 kb/s
Channel(s)                  : 6 channels
Channel layout              : L R C LFE Ls Rs
Sampling rate               : 48.0 kHz
Frame rate                  : 31.250 FPS (1536 SPF)
Compression mode            : Lossy
Stream size                 : 96.6 MiB (21%)
Title                       : English E-AC-3 DDP 5.1 @ 640 Kbps
Language                    : English
Service kind                : Complete Main
Default                     : Yes
Forced                      : No

Text #1
ID                          : 3
Format                      : UTF-8
Codec ID                    : S_TEXT/UTF8
Codec ID/Info               : UTF-8 Plain Text
Duration                    : 20 min 56 s
Bit rate                    : 65 b/s
Count of elements           : 427
Stream size                 : 9.97 KiB (0%)
Title                       : English SDH SRT
Language                    : English
Default                     : Yes
Forced                      : No

Text #2
ID                          : 4
Format                      : UTF-8
Codec ID                    : S_TEXT/UTF8
Codec ID/Info               : UTF-8 Plain Text
Duration                    : 20 min 50 s
Bit rate                    : 62 b/s
Count of elements           : 375
Stream size                 : 9.51 KiB (0%)
Title                       : English SRT
Language                    : English
Default                     : No
Forced                      : No


Source Information
Final.Space.S03E07.The.Chamber.of.Doubt.1080p.AMZN.WEB-DL.DD+5.1.H.264-NTb (848 MB)


We have no issue with individuals posting or re-uploading our torrents on a platform we aren't on. However, if this is something you'd like to do, please do so in a 'as-is' format. We ask that you do not create a new torrent, include all descriptions you see above including the SEV logo, tags, notes and screenshots. If you'd like to become a permanent poster on a website we don't post to, feel free to get in contact with a Sublime Encoded Video member.

We are recruiting/training new members for SEV & seedbox providers as well as people to help out with subtitles.
As you already know, we deliver quality, so you know the standard.
If you're interested, feel free to contact any of the team members.


Category:TV > HEVC/x265
Lang:English  English
Total Size:459 MB
Info Hash:531e9b1245b79b6f8fa555ba571efa9fa045d1cc
Added By:D0ct0rLew
Date Added:04-05-2021 10:48:40

Files

File List: 
 File Size
Contact SEV.txt1.03 kB
Final Space - S03.E07 - The Chamber of Doubt 1080p AMZN WebRip x265 DDP 5.1 Kira [SEV].mkv459 MB



Comments

There are currently no comments. Be the first one to write something !