hindi  New Amsterdam S03E11 The Mitchells vs. The Machines 2021 Tamil  xxx Mumbai saga Those Who Wish Me Dead malayalam  Wrath of Man 2021 radhe mortal kombat 2021 karnan The Unholy 2021 Rebel S01E05 Big Sky S01E15 evo young sheldon The Flash S07E09 Great White 2021 FBI S03E13 the marksman 2021 SEAL Team S04E14 Legacies S03E12 radhe 2021 rq.mp4 etrg Last Man Standing S09E19 Young Sheldon S04E18 Tom Clancys Without Remorse 2021 Queen of the South  wwe Chicago Fire s09e14 Clarice S01E09 The Handmaids Tale S04E05 Chicago Med s06e14 The Real Housewives of New Jersey S11E13 Walker S01E11 radhe your most wanted bhai Manifest S03E09 wrath of man ethd S.W.A.T. S04E16 proper The Last Hour etmovies ddr army of the dead FEAR THE WALKING DEAD Chicago P.D. S08E14 Nobody 2021 Spiral From the Book of Saw 2021 yts The Conners S03E19 Queen of the South S05E06 ettv 0 Kung Fu S01E06 Army of the Dead 2021 hindi 2021 Married at First Sight S12E17 The Virtuoso 2021 law and order organized crime s01e05 J Cole Godzilla vs. Kong 2021 castlevania  Those Who Wish Me Dead 2021 Mare of Easttown S01E04 Oxygen 2021 Radhe movie  Law and Order SVU S22E13 Mayans M.C. S03E10 This Is Us S05E14 
Warning! Use a VPN When Downloading Torrents!
Your IP Address is 3.236.118.225,. Location Sweden
Your Internet Provider can see when you download torrents! Hide your IP Address with a VPN
ETTV warns: You should use VPN to hide your torrenting. HIDE ME NOW
ETTV Recommended TV Shows
Clarice.S01E09.720p.HDTV.x264-SYNCOPY torrent
Law.and.Order.SVU.S22E13.720p.HDTV.x264-SYNCOPY torrent
Legacies.S03E12.720p.HDTV.x264-SYNCOPY torrent
Manifest.S03E09.720p.HDTV.x264-SYNCOPY torrent
Mythic.Quest.Ravens.Banquet.S02E03.720p.WEB.H264-GLHF torrent
The.Mosquito.Coast.S01E04.720p.WEB.H264-GLHF torrent
Walker.S01E11.720p.HDTV.x264-SYNCOPY torrent
Young.Sheldon.S04E18.720p.HDTV.x264-SYNCOPY torrent
iMPACT Wrestling 2021 05 13 HDTV x264-NWCHD [TJET] torrent
Star.Wars.The.Bad.Batch.S01E03.1080p.DSNP.WEB-DL.DDP5.1.H.264-StrawHats torrent

ETTV Recommended SD
The.Djinn.2021.HDRip.XviD.AC3-EVO torrent
TimeCrafters.The.Treasure.of.Pirates.Cove.2021.HDRip.XviD.AC3-EVO torrent
Those.Who.Wish.Me.Dead.2021.HDRip.XviD.AC3-EVO torrent
The.Woman.in.the.Window.2021.HDRip.XviD.AC3-EVO torrent

ETTV Recommended HD
The House With A Clock In Its Walls - Fantasy 2018 Eng Rus Multi-Subs 1080p [H264-mp4] torrent
88 Minutes (2007) [Al Pacino] 1080p H264 DolbyD 5.1 ⛦ ©️nickarad torrent
Godzilla.vs.Kong.2021.WEBRip.1080p.HEVC.HDR.DDP.DD5.1.gerald99 torrent
Raya.and.the.Last.Dragon.2021.BRRip.1080p.HEVC.HDR.Eng.DD5.1.gerald99 torrent

ETTV Recommended UHD
The.Leisure.Seeker.2017.WEBRip.2160p.UHD.HDR.DTS-HD.MA.DD5.1.gerald99 torrent
300.2006.2160p.Upscaled.Open.Matte.Eng.DTS.DD5.1.gerald99 torrent
Hotel.Transylvania.2 PACK.WEBRips.2160p.UHD.HDR.DTS-HD.MA.DD5.1.gerald99 torrent
Equilibrium.2002.2160p.Upscaled.Open.Matte.Eng.DD5.1.gerald99 torrent
All.The.Money.In.The.World.2017.WEBRip.2160p.UHD.HDR.DTS-HD.MA.DD5.1.gerald99 torrent
Raya.and.the.Last.Dragon.2021.BDRip.2160p.UHD.HDR.Eng.TrueHD.DD5.1.gerald99 torrent

ETTV Recommended Cam
Long Story Short (2021) English HDCAM x264 AAC By Full4Movies torrent
Ascendant (2021) 720p HDCAM English New Movie x264 AAC By Full4Movies torrent
Those Who Wish Me Dead.2021.1080p.HDCAM.X264-Frango torrent
Wrath of Man (2021) 720p HDCAM English x264 AAC By Full4Movies torrent

ETTV Recommended Foreign
Iris (1987) UNCUT 720p DVDRip x264 [Dual Audio] [Hindi DD 2.0 - Dutch 2.0] Exclusive By -=!Dr.STAR!=- torrent
Asuraguru (2021) HDRip 720p Malayalam (Org) + Tamil (DD5.1) 1.1GB  ESub[MB] torrent
Stand By Me Doraemon 1 And 2 2014-2020 720p.BluRay x264 Mkvking torrent
Mortal.Kombat.2021.SPANiSH.2160p.HMAX.WEB-DL.DDP5.1.Atmos.HDR.HEVC-dem3nt3 torrent
Without.Remorse.Senza.Rimorso.Di.Tom.Clancy.2021.iTALiAN.MULTi.UHD.HDR.WEB.x265-MeM.mkv torrent
The Legend of Hei 2019 CHINESE 720p BluRay HEVC x265-RMTeam  torrent

ETTV Recommended Music
St. Vincent - Daddy\' Home (2021) [24 Bit Hi-Res] FLAC [PMEDIA] ⭐️ torrent
Nicki Minaj - Beam Me Up Scotty (2021) Mp3 320kbps [PMEDIA] ⭐️ torrent
[art pop, indie-pop] (2021) Sophia Kennedy - Monsters [FLAC] [DarkAngie] torrent
[rock] (2021) Toe Fat – Bad Side of the Moon: An Anthology 1970-1972 [FLAC] [DarkAngie] torrent
[soul] (2021) Mary Wilson - Mary Wilson [Expanded Edition] [FLAC] [DarkAngie] torrent
Enya The Memory of Trees mp-3  1995  plus 8 bonus cuts torrent


Download Torrent "Voyagers.2021.HDRip.XviD.B4ND1T69"

IMDB Details
Description:

A crew of astronauts on a multi-generational mission descend into paranoia and madness, not knowing what is real or not.

Genre:

Adventure, Sci-Fi, Thriller

Download Torrent (Magnet)
Download Torrent (File)

Seeds: 213
Leechers: 32

Uploaded by:
B4ND1T69


Category:
Movies > XviD


Details
Title:Voyagers.2021.HDRip.XviD.B4ND1T69
Description:
Voyagers.2021.HDRip.XviD.B4ND1T69



Director: Neil Burger
Writer: Neil Burger
Stars: Colin Farrell, Tye Sheridan, Lily-Rose Depp

Plot/Story:
A crew of astronauts on a multi-generational mission descend into paranoia and madness, not knowing what is real or not.

General
Complete name               : Voyagers.2021.HDRip.XviD.B4ND1T69.avi
Format                      : AVI
Format/Info                 : Audio Video Interleave
File size                   : 749 MiB
Duration                    : 1 h 47 min
Overall bit rate            : 970 kb/s
Subtitles                   : Yes...Included(HI)

Video
ID                          : 0
Format                      : MPEG-4 Visual
Format profile              : Advanced [email protected]
Format settings, BVOP       : 2
Format settings, QPel       : No
Format settings, GMC        : No warppoints
Format settings, Matrix     : Default (H.263)
Codec ID                    : XVID
Codec ID/Hint               : XviD
Duration                    : 1 h 47 min
Bit rate                    : 829 kb/s
Width                       : 720 pixels
Height                      : 304 pixels
Display aspect ratio        : 2.35:1
Frame rate                  : 23.976 (24000/1001) FPS
Color space                 : YUV
Chroma subsampling          : 4:2:0
Bit depth                   : 8 bits
Scan type                   : Progressive
Compression mode            : Lossy
Bits/(Pixel*Frame)          : 0.158
Stream size                 : 640 MiB (85%)
Writing library             : XviD 64

Audio
ID                          : 1
Format                      : MPEG Audio
Format version              : Version 1
Format profile              : Layer 3
Codec ID                    : 55
Codec ID/Hint               : MP3
Duration                    : 1 h 47 min
Bit rate mode               : Constant
Bit rate                    : 128 kb/s
Channel(s)                  : 2 channels
Sampling rate               : 48.0 kHz
Compression mode            : Lossy
Stream size                 : 98.8 MiB (13%)
Alignment                   : Aligned on interleaves
Interleave, duration        : 24  ms (0.58 video frame)

Screenshots:










Please Seed For As Long As Possible
Or At Least 1:1 Ratio...Thanks
Enjoy Peeps

Category:Movies > XviD
Lang:EnglishGB
Total Size:749 MB
Info Hash:7bdd6699d9b51cf28ddb9a8cec0633c23306cf42
Added By:B4ND1T69
Date Added:04-05-2021 16:39:51

Files

File List: 
 File Size
Downloaded from 1337x.txt61.00 B
Downloaded from ETTV.txt55.00 B
Downloaded from Glodls.to.txt261.00 B
Downloaded from ProStyleX.txt54.00 B
Downloaded from The Pirate Bay.txt57.00 B
Voyagers.2021.HDRip.XviD.B4ND1T69.avi749 MB
Voyagers.2021.HDRip.XviD.B4ND1T69.srt81.75 kB



Comments

There are currently no comments. Be the first one to write something !